xvideos   sexy gier  arm bits
 

Navigation
 

Popular pages

We Have Found
 

Old Ladies Extreme Die Königin Perverser Gier


Old Ladies Extreme Die Königin Perverser Gier


Release Year: 1999
Studio: Videorama
Genres: Anal Fisting, Fisting, Anal, Pissing, Double Penetration, Fetish, MILF Older, Dildo, Hardcore, All Sex
Video language: English
Als die Raumpflegerin Madames riesigen Dildo entdeckt vermutet sie, das die alte Saftfotze nicht nur stramme Luststäbe in ihre Löcher steckt, sondern auch Fäuste und Gemüse. Die Freundinnen und Fickgesellen der Seniorensau geniessen extremste Ficks mit Piss-Orgien. Die geile Putze begreift, Madame ist die Kaiserin der Gier
Format: MPEG
Duration: 1:17:54
Video: 352x288, MPEG-1, 1123kbps
Audio: 218kbps
http://photosex.biz/v.php?id=cc3853820f303fd81100f7952949df23
File size: 777.4 MB

read more / Download


Old Ladies Extreme Die Konigin Perverser Gier (1999)


Old Ladies Extreme Die Konigin Perverser Gier (1999)


Video language: German
Als die Raumpflegerin Madames riesigen Dildo entdeckt vermutet sie, das die alte Saftfotze nicht nur stramme Luststäbe in ihre Löcher steckt, sondern auch Fäuste und Gemüse. Die Freundinnen und Fickgesellen der Seniorensau geniessen extremste Ficks mit Piss-Orgien. Die geile Putze begreift, Madame ist die Kaiserin der Gier...
Format: MPEG
Duration: 1:17:54
Video: 352x288, MPEG-1, 1123kbps
Audio: 218kbps
http://photosex.biz/v.php?id=7de27cc1390ce06a7e1f160d9eac1dd9
http://photosex.biz/v.php?id=0c1583d29b7f29a112df280aba58fe41
http://photosex.biz/v.php?id=5a10375dda5300abb4528ef855239d1c
http://photosex.biz/v.php?id=b3320407af94d3aaaee94fb5e06aeee3
http://photosex.biz/v.php?id=80aa23084231cbfa2b9691ae1379ac55
File size: 777.4 MB

read more / Download


NextDoorMale - Studding Twins


NextDoorMale - Studding Twins


Description:
Two videos from the site NextDoorMale with Studding Twins. Look and enjoy!
1.
Video: Windows Media Video 9, 2 000 Kbps, 720x480, 29.970 fps, 24 bits
Audio: Windows Media Audio 9.2 - 96 kbps, 48 kHz, 16 bits
2.
Video: Windows Media Video 9, 2 000 Kbps, 720x400, 29.970 fps, 24 bits
Audio: Windows Media Audio 9.2 - 96 kbps, 44.1 kHz, 16 bits
http://photosex.biz/v.php?id=dfb00450e5ddde7c0d26b8a5b5b39a0b
http://photosex.biz/v.php?id=ef2b4df9452bdaf773d62ab3d66ff1a3
Total size: 424.6 MB in 2 files.
http://filesmonster.com/folders.php?fid=FFMLAP8BMWZR7cVRlg7qgw

read more / Download


ZFX Dantist


ZFX Dantist

Released: 2005
Section: BDSM
Time: 82 min
Description:
pregnant children under the age of 16 with an unbalanced psyche in the form of pyanom driving spinning gears do not look


Video
ID : 1
Format : RealVideo 4
Codec ID : RV40
Codec ID/Info : Based on AVC (H.264), Real Player 9
Duration : 1h 21mn
Bit rate : 219 Kbps
Width : 320 pixels
Height : 240 pixels
Display aspect ratio : 4:3
Frame rate : 24.000 fps
Resolution : 12 bits
Bits/(Pixel*Frame) : 0.119
Stream size : 127 MiB (89%)
File size: 144.0 MB

read more / Download


Der Gier schutzlos ausgeliefert


Der Gier schutzlos ausgeliefert


Release Year: 1985
Studio: Ribu Film / VCA
Cast: Tish Ambrose, R. Bolla, Sharon Kane, Jerry Butler, Crystal Cox, Taija Rae, Joey Silvera, Tasha Voix, Baby Doe
Genres: Feature, Classic
Video language: German
Video is submitted to your attention: Der Gier schutzlos ausgeliefert. With participation of actors: Tish Ambrose, R. Bolla, Sharon Kane, Jerry Butler, Crystal Cox, Taija Rae, Joey Silvera, Tasha Voix, Baby Doe. Join and enjoy!
Format: avi
Duration: 1:19:16
Video: 720x576, XviD, 2094kbps
Audio: 187kbps
http://photosex.biz/v.php?id=c4db840cc837a5329fba36587bb977ae
http://photosex.biz/v.php?id=c48720907e7e7954b9ec93c16f2afb39
http://photosex.biz/v.php?id=9863115c6351c850fdb30f6a3f033cf6
http://photosex.biz/v.php?id=45013aba3fd1661ec7f059d75566c3ba
http://photosex.biz/v.php?id=3e91c5e0c1f52771e81a34e154c245b6
File size: 1.4 GB

read more / Download


Machine Sex


Machine Sex


Release: 2005
Genre: Dildo, Latex, Masturbation
Duration: 1h 26mn
Directed by: unknown
Studio: Inflagranti
Cast: Sharon Da Vale, Angelique Morreau, Evelina Letton and their mechanical friends
Description: more girls fucking sex machines
Extras. Information: A very interesting, unique to the collection!
Quality: DVDRip
Format: AVI
Video codec: DivX
Audio codec: MPEG Audio (mp3)
Video: Codec: DivX 5, 640x464, Frame rate: 25.000 fps, Resolution: 8 bits, Bits / (Pixel * Frame): 0.136
http://photosex.biz/v.php?id=f46212a4e1adf8cf056d64d84896f1e5
File size: 695.5 MB

read more / Download


BeauWarner


BeauWarner

Year: 2011
Country: USA
Genre: muscle, solo, jerkoff
Duration: 17:07
Description: The August heat is not just the peat fires, but the sudden hot Krasavchikov on sites where a long time nothing interesting befall. And Nate - the three-day stubble bifkeyk, erotic moaning and terebyaschy yourself for dummies.
http://photosex.biz/v.php?id=ce08cbd202fe06bd136d6f7e85a1c2d0
Video Quality: SiteRip
Video Format: WMV
Video codec: Windows Media
Audio Codec: WMA
Video: Windows Media Video 9, 2024 Kbps, 960x540, 16:9, 23.976 fps, 8 bits
Audio: Windows Media Audio 9.2 - 32 kbps, 32 kHz, stereo 2-pass CBR, 16 bits
File size: 253.6 MB

read more / Download


RandyBlue_BeauWarner


RandyBlue_BeauWarner

Year: 2011
Country: USA
Genre: muscle, solo, jerkoff
Duration: 17:07
Description: The August heat is not just the peat fires, but the sudden hot Krasavchikov on sites where a long time nothing interesting befall. And Nate - the three-day stubble bifkeyk, erotic moaning and terebyaschy yourself for dummies.
Video Quality: SiteRip
Video Format: WMV
Video codec: Windows Media
Audio Codec: WMA
Video: Windows Media Video 9, 2024 Kbps, 960x540, 16:9, 23.976 fps, 8 bits
Audio: Windows Media Audio 9.2 - 32 kbps, 32 kHz, stereo 2-pass CBR, 16 bits
http://photosex.biz/v.php?id=f5971a5f56183041ef596670beb5336e
File size: 253.6 MB

read more / Download


Succubus Returns/サキュバス・リターンズ 2011


Succubus Returns/サキュバス・リターンズ 2011

Production year: 2011
Genre: Witch, Internal Cumshot, Blowjob, Straight
Duration: 05:10
Censorship: Yes to all files
Language: Japanese
Postproduction: Original
Studio: Rock Club
Description: A man in his apartment called sukkubaKachestvo video: GameRip

Video Format: AVI
Video codec: H.264/AVC
Audio Codec: AC3
Video: Bit rate: 3703 Kbps Width: 1280 pixels Height: 960 pixels
Display aspect ratio: 4:3 Frame rate: 30.000 fps Bit depth: 8 bits
Audio: Bit rate: 128 Kbps Sampling rate: 48.0 KHz Bit depth: 16 bits
File size: 165.4 MB

read more / Download


Oh - La - La! Pipi - ein feuchtes Vergnuegen (1988)


Oh - La - La! Pipi - ein feuchtes Vergnuegen (1988)


Genre:Hardcore; Pissing; Anal; Oral; Group; Classic
Year: 1988
Size:502 MB
Duration: 01:11:29
Quality: VHSRip
Video:DivX; 780*720; 4:3; 25.000 fps; 780 Kbps; 24 bits
Audio:MP3; 192 Kbps; 2 channels; 44.1 KHz; 16 bits
Language/Dialect : Germany
Type/format : avi
Directed by: Moli
Studio:Magma
Cast:Melissa Bonsardo; Michelle Davy; Tanya Valis; Tina Loren
It is one of rare Magma vintage pissing movies. Lots of outdor as well as
indor anal and pissing movies. Real jewl in every collectors folder.
http://photosex.biz/v.php?id=d7b90e396de10cec062986110af32d8d
File size: 502.3 MB

read more / Download


Joey and Mike Boyfriends Bareback


Joey and Mike Boyfriends Bareback

Year: 2009
Country: USA
Genre: bears, daddies, anal, bareback
Length: 00:33:56
description:
Many fans of bear meat here has asked about this movie, and no wonder: weightlifter muscles, beer belly and disarming smile do Joey hero erotic dreams of all girls Transnistria and Transcarpathia.
Video Quality: SiteRip
Video Format: WMV
Video codec: Windows Media
Audio Codec: WMA
Video: Windows Media Video 9 Advanced Profile, 1500 Kbps, a 324x744, 29.970 fps, 24 bits
Audio: Windows Media Audio 9.2 - 96 kbps, 48 kHz, 16 bits
http://photosex.biz/v.php?id=0a43680741c6629da613e28d580a813e
File size: 388.8 MB

read more / Download


Boulevard Paris Bizarr


Boulevard Paris Bizarr

Production year: 198 *, the
Country: Germany; France
Genre: Hardcore; Anal; Oral; Fisting; Pissing
Length: 1:25:55
Language: German
Directed by: Ralf Scott
Studio: XY - Sex
Cast: Claudine (Claudine St Jacques); Cecil; Isabelle (Isabelle Allay); Chantall; Cherill (Cheryl); Millen; Pasquale; Therry; Costa
description:
Old Pron 80, shot in France, but in German. You expect a few scenes with rukosuystvom and urination, tight energetic sex, including anal and double penetration.
Video Quality: VHSRip
Video Format: AVI
Video codec: DivX
Audio: MP3
Video: 720 * 536; 780 Kbps; 4:3; 25.000 fps; 24 bits
Audio: 192 Kbps; two channels; 44.1 KHz; 16 bits

File size: 603.4 MB

read more / Download


BrutalTorture - Jazz Club


BrutalTorture - Jazz Club


Release Year: 2012
Studio: BrutalViolence
She is a sexy submissive blonde with quite the tits. Five scenes of the Master in rope bondage, gag bits, flogging. He sure does enjoy tying her up and she seems you enjoy it as well.
Format: avi
Duration: 20:34
Video: 360x288, XviD, 554kbps
Audio: 125kbps
http://photosex.biz/v.php?id=940b4662399bcd364a71df86221e6e8a
File size: 104.2 MB

read more / Download


Inflagranti - Fetish Zone Latex - Latex Gier


Inflagranti - Fetish Zone Latex - Latex Gier

Cast: Nikki, Cindy Rella, Lenka, Jean Pallett, Maik
Story: Latex Gier is a latex lovers' dream, featuring three scenes of sizzling sex as these randy girls in their shiny costumes play sensuous love games with their well-hung boys! This dvd which is not just randy and raunchy - it is also a work of erotic art, which any fetish aficionado will appreciate. If the crisp sound of latex flexing against the flesh or the incredibly shiny colours do it for you - read on! Scene one opens with a brunette pussycat writhing on the playmates as her fingers stroke her breasts and pussy. Her slick latex body-skin crinkles as she teases her curves through the figure hugging material. Behind a curtain a man watches her solo show before joining her dishing out a deep anal dicking and a frantic pussy plugging in cowgirl before spunking his load across her latex enveloped arse! A naughty nurse and dirty doctor get up to hanky panky in scene two - the doctor plays with the buxom babes tender tits through her PVC cloak as she suckles on his meaty thermometer! He fingers her fanny with his latex clad gauntlet before injecting her cunt with his thick veiny cock as their crisp latex skins crinkle and distort with their athletic movements. In the final scene a petite brunette parades for the camera in a futuristic setting wearing a blue dress and bright red PVC stockings. Her skin-tight latex outfit emphasise this girl's supple body, perfect curves and fleshy gash. Upon discovering a huge black dildo, she is soon sliding her labia over the tool before her lover joins her in this kinky two-way. She licks his cock and balls before taking his rocket in her cooze before he spunks his load across her latex clad abdomen. Let these stunning girls lure you in to their strange, erotic dream world in this very kinky, very sexy dvd from Inflagranti!
Size: 733181952 bytes (699.22 MiB), duration: 01:32:31, avg.bitrate: 1057 kb/s
Audio: mp3, 48000 Hz, stereo, 128 kb/s
Video: mpeg4, yuv420p, 544x400, 25.00 fps(r)
http://photosex.biz/v.php?id=1d674ceb1be8e6c294587a182699e2c5
File size: 699.2 MB

read more / Download


[3D VIDEO]Babydoll's Sexual Experiments


[3D VIDEO]Babydoll's Sexual Experiments

After the quarrel, we had a "reconciliation" sex. During a hard act, he asked me if I feel this ecstasy with someone else, so I answered "I don't know" to be a little bit mean.
Then he started a violent piston movement and said that he would train me so that I feel it with him only... What a sweet phrase to hear!
Year: 2009
Genre: Tentacles, Group sex, Blowjob, Titjob, Futanari, Big tits
Duration: 34:13
Censorship: Yes to all files
Language: Japanese
Sound: OriginalnayaStudiya: POSH6

Video Quality: GameRip
Video Format: AVI
Video codec: H.264/AVC
Audio Codec: AC3
Video: Bit rate: 1103 Kbps Width: 640 pixels Height: 480 pixels
Display aspect ratio: 4:3 Frame rate: 29.970 fps Bits / (Pixel * Frame): 0.120
Audio: Bit rate: 128 Kbps Channel (s): 2 channels Sampling rate: 48.0 KHz Bit depth: 16 bits
File size: 303.9 MB

read more / Download


Inflagranti Fetish-Zone: Latex - Latex-Gier


Inflagranti Fetish-Zone: Latex - Latex-Gier

Cast: Fetish, Latex, Rubber, All Sex, Oral, Toys
Cast: Nikki, Cindy Rella, Lenka, Jean Pallett, Maik
Story: Latex Gier is a latex lovers' dream, featuring three scenes of sizzling sex as these randy girls in their shiny costumes play sensuous love games with their well-hung boys! This dvd which is not just randy and raunchy - it is also a work of erotic art, which any fetish aficionado will appreciate. If the crisp sound of latex flexing against the flesh or the incredibly shiny colours do it for you - read on! Scene one opens with a brunette pussycat writhing on the playmates as her fingers stroke her breasts and pussy. Her slick latex body-skin crinkles as she teases her curves through the figure hugging material. Behind a curtain a man watches her solo show before joining her dishing out a deep anal dicking and a frantic pussy plugging in cowgirl before spunking his load across her latex enveloped arse! A naughty nurse and dirty doctor get up to hanky panky in scene two - the doctor plays with the buxom babes tender tits through her PVC cloak as she suckles on his meaty thermometer! He fingers her fanny with his latex clad gauntlet before injecting her cunt with his thick veiny cock as their crisp latex skins crinkle and distort with their athletic movements. In the final scene a petite brunette parades for the camera in a futuristic setting wearing a blue dress and bright red PVC stockings. Her skin-tight latex outfit emphasise this girl's supple body, perfect curves and fleshy gash. Upon discovering a huge black dildo, she is soon sliding her labia over the tool before her lover joins her in this kinky two-way. She licks his cock and balls before taking his rocket in her cooze before he spunks his load across her latex clad abdomen. Let these stunning girls lure you in to their strange, erotic dream world in this very kinky, very sexy dvd from Inflagranti!
Video: DivX 5 544x400 25.00fps 908Kbps
Audio: MPEG Audio Layer 3 48000Hz stereo 135Kbps
http://photosex.biz/v.php?id=bc90a3b277ea65acc0b0b673a9b217e7
File size: 699.2 MB

read more / Download


Babydoll's Sexual Experiments / inran kyonyuu jikken


Babydoll's Sexual Experiments / inran kyonyuu jikken

Year: 2009
Genre: Tentacles, Group sex, Blowjob, Titjob, Futanari, Big tits
Duration: 34:13
Censorship: Yes to all files
Language: Japanese
Sound: OriginalnayaStudiya: POSH6Opisanie: After the quarrel, we had a "reconciliation" sex. During a hard act, he asked me if I feel this ecstasy with someone else, so I answered "I don't know" to be a little bit mean.
Then he started a violent piston movement and said that he would train me so that I feel it with him only ... What a sweet phrase to hear!

Video Quality: GameRip
Video Format: AVI
Video codec: H.264/AVC
Audio Codec: AC3
Video: Bit rate: 1103 Kbps Width: 640 pixels Height: 480 pixels
Display aspect ratio: 4:3 Frame rate: 29.970 fps Bits / (Pixel * Frame): 0.120
Audio: Bit rate: 128 Kbps Channel (s): 2 channels Sampling rate: 48.0 KHz Bit depth: 16 bits
File size: 303.9 MB

read more / Download


Publicly, in front of others - publicly and forcefully, ... bullying!


Publicly, in front of others - publicly and forcefully, ... bullying!

Description:
great game, sensual scenes, beautiful furnishings -
All this in the past
TAPERICHA SEKAS !!!!! GUBY And BESPASCHADNVYYEEE
General
Complete name: E: OGpd12410-JamesDeen LouCharmellePD_12410_JamesDeen_LouCharmelle.wmv
Format: Windows Media
File size: 795 MiB
Duration: 1h 6mn
Overall bit rate mode: Variable
Overall bit rate: 1676 Kbps
Maximum Overall bit rate: 7158 Kbps
Encoded date: UTC 2011-04-15 21:56:38.770
Rating: xxx


Video
ID: 2
Format: VC-1
Format profile: MP @ HL
Codec ID: WMV3
Codec ID / Info: Windows Media Video 9
Codec ID / Hint: WMV3
Description of the codec: Windows Media Video 9 - Professional
Duration: 1h 6mn
Bit rate mode: Variable
Bit rate: 1500 Kbps
Width: 1280 pixels
Height: 720 pixels
Display aspect ratio: 16:9
Frame rate: 29.970 fps
Resolution: 24 bits
Scan Progressive
Bits / (Pixel * Frame): 0.054
Stream size: 711 MiB (89%)
Audio
ID: 1
Format: WMA
Format version: Version 2
Codec ID: 161
Codec ID / Info: Windows Media Audio
Description of the codec: Windows Media Audio 9.1 - 128 kbps, 44 kHz, stereo 2-pass CBR
Duration: 1h 6mn
Bit rate mode: Constant
Bit rate: 128 Kbps
Channel (s): 2 channels
Sampling rate: 44.1 KHz
Resolution: 16 bits
Stream size: 60.7 MiB (8%)
File size: 794.9 MB

read more / Download


KenMarcus.11.05.25.Mallory.Rae.And.Mark.Davis


KenMarcus.11.05.25.Mallory.Rae.And.Mark.Davis

Year: 2011
Genre: BDSM, Deepthroat, Spanking, Hardcore, 720p
Length: 00:34:36
Studio: Kenmarcus
Starring: Mallory Rae And Mark Davis
When Mallory Rae moved to Los Angeles, she contacted us with an unusual request. She had just turned 18 and had remained a virgin until just three weeks prior to our meeting. Having tried sex only once before, Mallory now wanted to participate in a BDSM sex scene.Who better than the infamous Mark Davis to introduce Mallory to intense, sexual dungeon play and show her the ropes. Mallory had seen him in videos before and was thrilled he would take the time to play with her. Mallory arrived wearing a simple summer dress and looking quite innocent. Mark immediately attached her to our cross and let her wait there for a while to contemplate what might happen to her. She told Mark he could do anything he wants and was eager for the experience. Mark then proceeded to dominate Mallory, subjecting her to a variety of BDSM activities including spanking, face slapping, breath play, whipping, throat fucking, foot worship, flogging, caning, forced orgasms, and rough sex. It's amazing how eager a beginner can be with the right teacher.
Quality videop: SiteRip
Video Format: WMV
Video codec: Windows Media
Audio Codec: WMA
Video: Windows Media Video 8 Bit rate 2904 - 3099 Kbps 1280x720 pix 16:9 30.000 fps 24 bits Bits / (Pixel * Frame): 0.105
Audio: Windows Media Audio 2 Bit rate 64.0 Kbps 2 channels 44.1 KHz 16 bits
http://photosex.biz/v.php?id=03e8122bed6945a1be79980060906678
File size: 767.1 MB

read more / Download


Sinnamon Love - Bootyfull View


Sinnamon Love - Bootyfull View


Release Year: 2012
Studio: Xvideos
Genres: oral, anal, big cock, cumshot
Video language: English
Sinnamon Love and Shogun have two things in common.
We're both nice like that.
And
We both have haters who think we give a fuck, when we don't.
Stands to reason then, that I elect Miss Love to get down for some pussy pounding.
Shogun drops quite a bit of AZN, Ivory, Latina ass on station, but there's just something about a black ass.
There's some absolutely hideous face having black women, that will get too much fucking attention.. and is probably getting attention right the fuck now, just because of the damn donk she's packing.
It's crazy.
But it drives men wild.
Format: MPEG
Duration: 26:10
Video: 480x360, MPEG-1, 976kbps
Audio: 125kbps
http://photosex.biz/v.php?id=6e817e84dcead9fba328a27134022928
http://photosex.biz/v.php?id=4759194ff6f8c42fac5a4efa85b64b7c
http://photosex.biz/v.php?id=8a814391f919ac99976bcfec49337be1
http://photosex.biz/v.php?id=091907c7d04d36ad3d6ffca116acd6d8
http://photosex.biz/v.php?id=a5ffddff2e2fea262caa9b35a97e1868
File size: 213.9 MB

read more / Download


Related Search:

Search


 

Popular Search

 

Partners

 
This site does not store any files on its server. We only index and link to content provided by other sites.

RSS | Site Map | Map | PageMap

Copyright © Free Porn Tube Movies, Sex Videos, Porno Clips & XXX Pics. All rights reserved.