xviado    sexy giaer    arm bits hairy
 

Navigation
 

Popular pages

We Have Found
 

Caucasian-passive wishes to be properly entered in the books


Caucasian-passive wishes to be properly entered in the books


Year: 2011
Country: USA
Genre: Amateur, hairy, solo
Duration: 00:11:11
Description: Cute hairy passive Caucasian turns before the camera, showing his might, virgin ass! All the weary, and want to feel inside a hard, hot and long ... surprise!
Video Quality: CamRip
Video Format: FLV
Video Codec: Flash
Audio: MP3
Video: 640x480 761 kbps 19 fps
Audio: MPEG stereo 44100Hz 64 kbps, 16 bits
File size: 68.1 MB

read more / Download


Caucasian-passive wishes to be properly entered in the books [CamRip 2011]


Caucasian-passive wishes to be properly entered in the books [CamRip 2011]


Year: 2011
Country: USA
Genre: Amateur, hairy, solo
Duration: 00:11:11
Description: Cute hairy passive Caucasian turns before the camera, showing his might, virgin ass! All the weary, and want to feel inside a hard, hot and long ... surprise!
http://photosex.biz/v.php?id=c5f6789734515f72e4bd9da000033969
Video Quality: CamRip
Video Format: FLV
Video Codec: Flash
Audio: MP3
Video: 640x480 761 kbps 19 fps
Audio: MPEG stereo 44100Hz 64 kbps, 16 bits
File size: 68.1 MB

read more / Download


NextDoorMale - Studding Twins


NextDoorMale - Studding Twins


Description:
Two videos from the site NextDoorMale with Studding Twins. Look and enjoy!
1.
Video: Windows Media Video 9, 2 000 Kbps, 720x480, 29.970 fps, 24 bits
Audio: Windows Media Audio 9.2 - 96 kbps, 48 kHz, 16 bits
2.
Video: Windows Media Video 9, 2 000 Kbps, 720x400, 29.970 fps, 24 bits
Audio: Windows Media Audio 9.2 - 96 kbps, 44.1 kHz, 16 bits
http://photosex.biz/v.php?id=dfb00450e5ddde7c0d26b8a5b5b39a0b
http://photosex.biz/v.php?id=ef2b4df9452bdaf773d62ab3d66ff1a3
Total size: 424.6 MB in 2 files.
http://filesmonster.com/folders.php?fid=FFMLAP8BMWZR7cVRlg7qgw

read more / Download


ZFX Dantist


ZFX Dantist

Released: 2005
Section: BDSM
Time: 82 min
Description:
pregnant children under the age of 16 with an unbalanced psyche in the form of pyanom driving spinning gears do not look


Video
ID : 1
Format : RealVideo 4
Codec ID : RV40
Codec ID/Info : Based on AVC (H.264), Real Player 9
Duration : 1h 21mn
Bit rate : 219 Kbps
Width : 320 pixels
Height : 240 pixels
Display aspect ratio : 4:3
Frame rate : 24.000 fps
Resolution : 12 bits
Bits/(Pixel*Frame) : 0.119
Stream size : 127 MiB (89%)
File size: 144.0 MB

read more / Download


Machine Sex


Machine Sex


Release: 2005
Genre: Dildo, Latex, Masturbation
Duration: 1h 26mn
Directed by: unknown
Studio: Inflagranti
Cast: Sharon Da Vale, Angelique Morreau, Evelina Letton and their mechanical friends
Description: more girls fucking sex machines
Extras. Information: A very interesting, unique to the collection!
Quality: DVDRip
Format: AVI
Video codec: DivX
Audio codec: MPEG Audio (mp3)
Video: Codec: DivX 5, 640x464, Frame rate: 25.000 fps, Resolution: 8 bits, Bits / (Pixel * Frame): 0.136
http://photosex.biz/v.php?id=f46212a4e1adf8cf056d64d84896f1e5
File size: 695.5 MB

read more / Download


BeauWarner


BeauWarner

Year: 2011
Country: USA
Genre: muscle, solo, jerkoff
Duration: 17:07
Description: The August heat is not just the peat fires, but the sudden hot Krasavchikov on sites where a long time nothing interesting befall. And Nate - the three-day stubble bifkeyk, erotic moaning and terebyaschy yourself for dummies.
http://photosex.biz/v.php?id=ce08cbd202fe06bd136d6f7e85a1c2d0
Video Quality: SiteRip
Video Format: WMV
Video codec: Windows Media
Audio Codec: WMA
Video: Windows Media Video 9, 2024 Kbps, 960x540, 16:9, 23.976 fps, 8 bits
Audio: Windows Media Audio 9.2 - 32 kbps, 32 kHz, stereo 2-pass CBR, 16 bits
File size: 253.6 MB

read more / Download


RandyBlue_BeauWarner


RandyBlue_BeauWarner

Year: 2011
Country: USA
Genre: muscle, solo, jerkoff
Duration: 17:07
Description: The August heat is not just the peat fires, but the sudden hot Krasavchikov on sites where a long time nothing interesting befall. And Nate - the three-day stubble bifkeyk, erotic moaning and terebyaschy yourself for dummies.
Video Quality: SiteRip
Video Format: WMV
Video codec: Windows Media
Audio Codec: WMA
Video: Windows Media Video 9, 2024 Kbps, 960x540, 16:9, 23.976 fps, 8 bits
Audio: Windows Media Audio 9.2 - 32 kbps, 32 kHz, stereo 2-pass CBR, 16 bits
http://photosex.biz/v.php?id=f5971a5f56183041ef596670beb5336e
File size: 253.6 MB

read more / Download


Succubus Returns/サキュバス・リターンズ 2011


Succubus Returns/サキュバス・リターンズ 2011

Production year: 2011
Genre: Witch, Internal Cumshot, Blowjob, Straight
Duration: 05:10
Censorship: Yes to all files
Language: Japanese
Postproduction: Original
Studio: Rock Club
Description: A man in his apartment called sukkubaKachestvo video: GameRip

Video Format: AVI
Video codec: H.264/AVC
Audio Codec: AC3
Video: Bit rate: 3703 Kbps Width: 1280 pixels Height: 960 pixels
Display aspect ratio: 4:3 Frame rate: 30.000 fps Bit depth: 8 bits
Audio: Bit rate: 128 Kbps Sampling rate: 48.0 KHz Bit depth: 16 bits
File size: 165.4 MB

read more / Download


Oh - La - La! Pipi - ein feuchtes Vergnuegen (1988)


Oh - La - La! Pipi - ein feuchtes Vergnuegen (1988)


Genre:Hardcore; Pissing; Anal; Oral; Group; Classic
Year: 1988
Size:502 MB
Duration: 01:11:29
Quality: VHSRip
Video:DivX; 780*720; 4:3; 25.000 fps; 780 Kbps; 24 bits
Audio:MP3; 192 Kbps; 2 channels; 44.1 KHz; 16 bits
Language/Dialect : Germany
Type/format : avi
Directed by: Moli
Studio:Magma
Cast:Melissa Bonsardo; Michelle Davy; Tanya Valis; Tina Loren
It is one of rare Magma vintage pissing movies. Lots of outdor as well as
indor anal and pissing movies. Real jewl in every collectors folder.
http://photosex.biz/v.php?id=d7b90e396de10cec062986110af32d8d
File size: 502.3 MB

read more / Download


ATK Scary Hairy 5


ATK Scary Hairy 5

Genre: Hairy, Fetish, Amateur
Description:
Often times were asked, "Whats our criteria for labeling a performer a Scary Hairy model?" Well besides the obvious of having a moist, bushy paradise which happens to poke out past her delicious panty line, she also has to have a naughty and enthusiastic personality to match her adventurous hairy appearance. These 14 all-natural beauties are ready to lay claim to the title "Scary Hairy" with 14 wild scenes sure to please even the most hardcore fans of the hottest, horniest, hairy models from ATKingdom. The question is .... are you ready?

File size: 2.7 GB

read more / Download


Joey and Mike Boyfriends Bareback


Joey and Mike Boyfriends Bareback

Year: 2009
Country: USA
Genre: bears, daddies, anal, bareback
Length: 00:33:56
description:
Many fans of bear meat here has asked about this movie, and no wonder: weightlifter muscles, beer belly and disarming smile do Joey hero erotic dreams of all girls Transnistria and Transcarpathia.
Video Quality: SiteRip
Video Format: WMV
Video codec: Windows Media
Audio Codec: WMA
Video: Windows Media Video 9 Advanced Profile, 1500 Kbps, a 324x744, 29.970 fps, 24 bits
Audio: Windows Media Audio 9.2 - 96 kbps, 48 kHz, 16 bits
http://photosex.biz/v.php?id=0a43680741c6629da613e28d580a813e
File size: 388.8 MB

read more / Download


Boulevard Paris Bizarr


Boulevard Paris Bizarr

Production year: 198 *, the
Country: Germany; France
Genre: Hardcore; Anal; Oral; Fisting; Pissing
Length: 1:25:55
Language: German
Directed by: Ralf Scott
Studio: XY - Sex
Cast: Claudine (Claudine St Jacques); Cecil; Isabelle (Isabelle Allay); Chantall; Cherill (Cheryl); Millen; Pasquale; Therry; Costa
description:
Old Pron 80, shot in France, but in German. You expect a few scenes with rukosuystvom and urination, tight energetic sex, including anal and double penetration.
Video Quality: VHSRip
Video Format: AVI
Video codec: DivX
Audio: MP3
Video: 720 * 536; 780 Kbps; 4:3; 25.000 fps; 24 bits
Audio: 192 Kbps; two channels; 44.1 KHz; 16 bits

File size: 603.4 MB

read more / Download


BrutalTorture - Jazz Club


BrutalTorture - Jazz Club


Release Year: 2012
Studio: BrutalViolence
She is a sexy submissive blonde with quite the tits. Five scenes of the Master in rope bondage, gag bits, flogging. He sure does enjoy tying her up and she seems you enjoy it as well.
Format: avi
Duration: 20:34
Video: 360x288, XviD, 554kbps
Audio: 125kbps
http://photosex.biz/v.php?id=940b4662399bcd364a71df86221e6e8a
File size: 104.2 MB

read more / Download


[3D VIDEO]Babydoll's Sexual Experiments


[3D VIDEO]Babydoll's Sexual Experiments

After the quarrel, we had a "reconciliation" sex. During a hard act, he asked me if I feel this ecstasy with someone else, so I answered "I don't know" to be a little bit mean.
Then he started a violent piston movement and said that he would train me so that I feel it with him only... What a sweet phrase to hear!
Year: 2009
Genre: Tentacles, Group sex, Blowjob, Titjob, Futanari, Big tits
Duration: 34:13
Censorship: Yes to all files
Language: Japanese
Sound: OriginalnayaStudiya: POSH6

Video Quality: GameRip
Video Format: AVI
Video codec: H.264/AVC
Audio Codec: AC3
Video: Bit rate: 1103 Kbps Width: 640 pixels Height: 480 pixels
Display aspect ratio: 4:3 Frame rate: 29.970 fps Bits / (Pixel * Frame): 0.120
Audio: Bit rate: 128 Kbps Channel (s): 2 channels Sampling rate: 48.0 KHz Bit depth: 16 bits
File size: 303.9 MB

read more / Download


Butch Dixon - Alan Knight


Butch Dixon - Alan Knight


Alan Knight is a sexy and hairy Scottish man and wait until you hear his thick brogue in the interview portion of this video. Alan fingers his foreskin, plays with his hairy butt, and then jerks his fat uncut cock. He spews a thick load of cum all over his hairy belly. It's a hot one, boys!
Format: wmv
Duration: 13:28
Video: 1280x720, Windows Media Video 9, 4056 kbps
Audio: 192 kbps
http://photosex.biz/v.php?id=9ce9756f4e2abde1817a19f7f8840079
File size: 410.1 MB

read more / Download


Babydoll's Sexual Experiments / inran kyonyuu jikken


Babydoll's Sexual Experiments / inran kyonyuu jikken

Year: 2009
Genre: Tentacles, Group sex, Blowjob, Titjob, Futanari, Big tits
Duration: 34:13
Censorship: Yes to all files
Language: Japanese
Sound: OriginalnayaStudiya: POSH6Opisanie: After the quarrel, we had a "reconciliation" sex. During a hard act, he asked me if I feel this ecstasy with someone else, so I answered "I don't know" to be a little bit mean.
Then he started a violent piston movement and said that he would train me so that I feel it with him only ... What a sweet phrase to hear!

Video Quality: GameRip
Video Format: AVI
Video codec: H.264/AVC
Audio Codec: AC3
Video: Bit rate: 1103 Kbps Width: 640 pixels Height: 480 pixels
Display aspect ratio: 4:3 Frame rate: 29.970 fps Bits / (Pixel * Frame): 0.120
Audio: Bit rate: 128 Kbps Channel (s): 2 channels Sampling rate: 48.0 KHz Bit depth: 16 bits
File size: 303.9 MB

read more / Download


Publicly, in front of others - publicly and forcefully, ... bullying!


Publicly, in front of others - publicly and forcefully, ... bullying!

Description:
great game, sensual scenes, beautiful furnishings -
All this in the past
TAPERICHA SEKAS !!!!! GUBY And BESPASCHADNVYYEEE
General
Complete name: E: OGpd12410-JamesDeen LouCharmellePD_12410_JamesDeen_LouCharmelle.wmv
Format: Windows Media
File size: 795 MiB
Duration: 1h 6mn
Overall bit rate mode: Variable
Overall bit rate: 1676 Kbps
Maximum Overall bit rate: 7158 Kbps
Encoded date: UTC 2011-04-15 21:56:38.770
Rating: xxx


Video
ID: 2
Format: VC-1
Format profile: MP @ HL
Codec ID: WMV3
Codec ID / Info: Windows Media Video 9
Codec ID / Hint: WMV3
Description of the codec: Windows Media Video 9 - Professional
Duration: 1h 6mn
Bit rate mode: Variable
Bit rate: 1500 Kbps
Width: 1280 pixels
Height: 720 pixels
Display aspect ratio: 16:9
Frame rate: 29.970 fps
Resolution: 24 bits
Scan Progressive
Bits / (Pixel * Frame): 0.054
Stream size: 711 MiB (89%)
Audio
ID: 1
Format: WMA
Format version: Version 2
Codec ID: 161
Codec ID / Info: Windows Media Audio
Description of the codec: Windows Media Audio 9.1 - 128 kbps, 44 kHz, stereo 2-pass CBR
Duration: 1h 6mn
Bit rate mode: Constant
Bit rate: 128 Kbps
Channel (s): 2 channels
Sampling rate: 44.1 KHz
Resolution: 16 bits
Stream size: 60.7 MiB (8%)
File size: 794.9 MB

read more / Download


Mike


Mike


Mike is an east coast transplant who is a budding 24-year-old musician. He's definitely got that rock n' roll look to him — ears pierced, deep voice, and good looks.
At one point, he managed to get a small group together to play the bars but now he is really focusing on honing his talents and getting a serious band together. What really captured my attention about Mike was how hairy his sexy muscled body was. I'm not talking about a "happy trail" here. This guy is a happy pasture! If you like hair, then there is no part of Mike's body you won't like.
"You're pretty hairy!" I exclaimed.
"Yeah, my friends in high school used to call me 'Teen Wolf'."
"So you were this hairy in high school? How old do you think you were when you started getting hairy?"
"I was the youngest out of my friends... probably thirteen, fourteen years old," he replied. "Not this hairy, but it was a lot more than everyone else."
The nickname bothered him somewhat back then but now he loves his body hair. He says that it creates a great physical sensation when he or someone else touches it. I could tell... he shot his load like a super soaker all over the bed!
Published February 2, 2011
http://photosex.biz/v.php?id=8595eb8f27e8900ccc94c86dbc5aa896
File size: 146.7 MB

read more / Download


ATK Hairy Red Heads (2011) DVDRip


ATK Hairy Red Heads (2011) DVDRip


Starring: Kattie Gold, Carol, Morgan, Clelia, Lucy, Agnes, Simone, Ryanne.
Categories: All Sex, Fetish, Amateur, Natural, Hairy, Redheads
Studio: ATKingdom
ATKingdom presents Hairy Red Heads and the name says it all. Not only do these ladies have carrot tops but they also have fire down below. We pulled the best of our hairy red pussies for your enjoyment. Ryanne (featured on the cover) is joined by Jodi, Simone and the fabulous Benji. These chicks are on fire just like their hairy pussies. Cum join them for some hairy fun!
Format: mp4
Video: 720x480 at 30.000 fps, AVC, 1800 Kbps
Runtime: 03:05:21
http://photosex.biz/v.php?id=182939f7882d36f0f93d71eded7f61dc
File size: 2.4 GB

read more / Download


Blake Harper and Colton Ford (from "Porn Struck II")


Blake Harper and Colton Ford (from "Porn Struck II")

Year: 2001
Country: USA
Genre: Oral, Anal, Hairy, Muscle, Big Cock, Dildo
Description: Next, Doug Jeffries films super sexy BLAKE HARPER and his new partner, COLTON FORD with STEVE DRAGON and LARRY WOLF. Blake and his lover, Colton, go out of their room and see the two hairy studs lounging poolside. The two beefy men rub they? Re crotches as they spy on the two lovebirds. Blake and Colton see the big guys getting excited so they put on a sexy little show. The lovers kiss and nipple play before Blake works his mouth down to Colton? S big, stiff prick. Colton then goes down on Blake. The two lovers then go into the newly renovated video library. The sexy, hairy daddy bear, lubes up the two handsome men sweet assholes and sticks in a double-headed dildo. Next, Colton sticks his love pole up Blake? S hungry hole and fucks him doggy style. Then it? S Blake? S turn to pound his partner? S ass. Colton strokes his cock with Blake inside of him and dumps his man juice. Blake pops a nut.

File size: 174.3 MB

read more / Download


Related Search:

Search


 

Partners

 

Popular Search

 
This site does not store any files on its server. We only index and link to content provided by other sites.

RSS | Site Map | Map | PageMap

Copyright © Free Porn Tube Movies, Sex Videos, Porno Clips & XXX Pics. All rights reserved.